Battalion.2018.1080p.WEB-DL.DD5.1.H.264.CRO-DIAMOND

  • Category Movies
  • Type HD
  • Language English
  • Total size 3.2 GB
  • Uploaded By dmd12
  • Downloads 473
  • Last checked 1 month ago
  • Date uploaded 1 month ago
  • Seeders 0
  • Leechers 1

Battalion

After a war against an enemy from another world breaks out in the South Pacific, a group of freshly recruited U.S. Marines are sent to the front lines.

Infohash : A9965E8DECD058D9C901D5565E8C18E48302C919




Mediainfo:

Code:

General
Unique ID                                : 319584110722146141902950911788546531006 (0xF06DA92E0E6F771D53966DEAD3841EBE)
Complete name                            : Battalion.2018.1080p.WEB-DL.DD5.1.H.264.CRO-DIAMOND.mkv
Format                                   : Matroska
Format version                           : Version 4 / Version 2
File size                                : 3.21 GiB
Duration                                 : 1h 33mn
Overall bit rate                         : 4 911 Kbps
Movie name                               : CRO DIAMOND 1080p
Encoded date                             : UTC 2018-01-13 21:21:10
Writing application                      : mkvmerge v6.7.0 ('Back to the Ground') 64bit built on Jan  9 2014 18:03:17
Writing library                          : libebml v1.3.0 + libmatroska v1.4.1

Video
ID                                       : 1
Format                                   : AVC
Format/Info                              : Advanced Video Codec
Format profile                           : [email protected]
Format settings, CABAC                   : Yes
Format settings, ReFrames                : 5 frames
Codec ID                                 : V_MPEG4/ISO/AVC
Duration                                 : 1h 33mn
Bit rate                                 : 4 429 Kbps
Width                                    : 1 920 pixels
Height                                   : 804 pixels
Display aspect ratio                     : 2.40:1
Frame rate mode                          : Constant
Frame rate                               : 24.000 fps
Color space                              : YUV
Chroma subsampling                       : 4:2:0
Bit depth                                : 8 bits
Scan type                                : Progressive
Bits/(Pixel*Frame)                       : 0.120
Stream size                              : 2.90 GiB (90%)
Title                                    : CRO DIAMOND 1080p
Language                                 : English
Default                                  : Yes
Forced                                   : No
Color range                              : Limited
Color primaries                          : BT.709
Transfer characteristics                 : BT.709
Matrix coefficients                      : BT.709

Audio
ID                                       : 2
Format                                   : AC-3
Format/Info                              : Audio Coding 3
Mode extension                           : CM (complete main)
Format settings, Endianness              : Big
Codec ID                                 : A_AC3
Duration                                 : 1h 33mn
Bit rate mode                            : Constant
Bit rate                                 : 384 Kbps
Channel(s)                               : 6 channels
Channel positions                        : Front: L C R, Side: L R, LFE
Sampling rate                            : 48.0 KHz
Compression mode                         : Lossy
Stream size                              : 257 MiB (8%)
Language                                 : English
Default                                  : Yes
Forced                                   : No

Text
ID                                       : 3
Format                                   : UTF-8
Codec ID                                 : S_TEXT/UTF8
Codec ID/Info                            : UTF-8 Plain Text
Language                                 : English
Default                                  : No
Forced                                   : No

Menu
00:00:00.000                             : en:1
00:11:01.000                             : en:2
00:24:00.000                             : en:3
00:38:05.000                             : en:4
00:51:09.000                             : en:5
01:02:15.000                             : en:6
01:12:28.000                             : en:7
01:22:53.000                             : en:8
01:32:28.000                             : en:9


Files:

  • Battalion.2018.1080p.WEB-DL.DD5.1.H.264.CRO-DIAMOND.mkv (3.2 GB)

There are currently no comments. Feel free to leave one :)