The.Student.2017.UNRATED.1080p.WEB-DL.DD5.1.H.264.CRO-DIAMOND

  • Category Movies
  • Type HD
  • Language English
  • Total size 3.5 GB
  • Uploaded By dmd12
  • Downloads 729
  • Last checked 1 month ago
  • Date uploaded 1 month ago
  • Seeders 1
  • Leechers 2

The Student

Thriller

After leading a jury to wrongly sentence a man, Abigail enters her new teaching job at the law school with a newfound commitment to ethics. When she takes over her new class, it includes Vincent, an intensely ambitious student who will do anything for an A. When Abigail fails him for academic dishonesty, Vincent threatens that he will stop at nothing to get what he wants. As Vincent's devious plot begins to unravel, she must take her life into her own hands, or Vincent will take it himself.

Infohash : 26D0FA8A9479AAA0C218A21171FCEA69D761E02B




Mediainfo:

Code:

General
Unique ID : 122453297500749763515972627882239453251 (0x5C1FA5B1D1E0527E65C7E55B8D91E843)
Complete name : The.Student.2017.UNRATED.1080p.WEB-DL.DD5.1.H.264.mkv
Format : Matroska
Format version : Version 4 / Version 2
File size : 3.48 GiB
Duration : 1h 30mn
Overall bit rate : 5 532 Kbps
Movie name : CRO DIAMOND 1080p
Encoded date : UTC 2017-08-08 11:19:25
Writing application : mkvmerge v7.2.0 ('On Every Street') 64bit built on Oct 7 2014 18:52:30
Writing library : libebml v1.3.0 + libmatroska v1.4.1
DURATION : 01:28:38.245000000
NUMBER_OF_FRAMES : 1175
NUMBER_OF_BYTES : 35894
_STATISTICS_WRITING_APP : mkvmerge v7.2.0 ('On Every Street') 64bit built on Oct 7 2014 18:52:30
_STATISTICS_WRITING_DATE_UTC : 2017-08-08 11:19:25
_STATISTICS_TAGS : BPS DURATION NUMBER_OF_FRAMES NUMBER_OF_BYTES

Video
ID : 1
Format : AVC
Format/Info : Advanced Video Codec
Format profile : [email protected]
Format settings, CABAC : Yes
Format settings, ReFrames : 4 frames
Codec ID : V_MPEG4/ISO/AVC
Duration : 1h 30mn
Bit rate : 5 038 Kbps
Width : 1 904 pixels
Height : 1 064 pixels
Display aspect ratio : 16:9
Frame rate mode : Constant
Frame rate : 23.976 fps
Color space : YUV
Chroma subsampling : 4:2:0
Bit depth : 8 bits
Scan type : Progressive
Bits/(Pixel*Frame) : 0.104
Stream size : 3.17 GiB (91%)
Title : CRO DIAMOND 1080p
Language : English
Default : Yes
Forced : No
Color range : Limited
Color primaries : BT.709
Transfer characteristics : BT.709
Matrix coefficients : BT.709

Audio
ID : 2
Format : AC-3
Format/Info : Audio Coding 3
Mode extension : CM (complete main)
Format settings, Endianness : Big
Codec ID : A_AC3
Duration : 1h 30mn
Bit rate mode : Constant
Bit rate : 384 Kbps
Channel(s) : 6 channels
Channel positions : Front: L C R, Side: L R, LFE
Sampling rate : 48.0 KHz
Compression mode : Lossy
Stream size : 247 MiB (7%)
Language : English
Default : Yes
Forced : No

Text
ID : 3
Format : UTF-8
Codec ID : S_TEXT/UTF8
Codec ID/Info : UTF-8 Plain Text
Language : English
Default : No
Forced : No

Menu
00:00:00.000 : en:Chapter 1
00:10:40.640 : en:Chapter 2
00:20:14.213 : en:Chapter 3
00:31:06.865 : en:Chapter 4
00:41:03.461 : en:Chapter 5
00:49:39.977 : en:Chapter 6
01:01:03.660 : en:Chapter 7
01:10:43.239 : en:Chapter 8
01:20:39.835 : en:Chapter 9
01:29:45.380 : en:Chapter 10

Files:

  • The.Student.2017.UNRATED.1080p.WEB-DL.DD5.1.H.264.CRO-DIAMOND.mkv (3.5 GB)

There are currently no comments. Feel free to leave one :)